Sunday, 18.11.2018, 08:30
I welcome you Guest

Home Page | Registration | Enter
Home page » 2018 » April » 11 » The BluesBones - Double Live (2016)
02:35
The BluesBones - Double Live (2016)
Artist: The BluesBones
Title Of Album: Double Live
Release Date: 2016
Location: Belgium
Label: The BluesBones
Genre: Blues Rock
Quality: FLAC | lossless (image+cue+Log)
Length: 01:36:11
Tracks: 15
Total Size: 577.85 MB
WebSite: Home Page


















Tracklist:
CD1

01. Saved By The Blues - 03:17
02. Voodoo Guitar - 08:44
03. Riding Out - 04:02
04. Moonshine - 06:12
05. Find Me A Woman - 04:07
06. I'm Still Your Man - 06:58
07. No Good For Me - 04:29
08. She's Got The Devil In Her - 13:05

CD2

01. Broken Down Car - 03:56
02. I Try - 08:00
03. Runaway - 12:21
04. Wrong - 06:01
05. Cruisin' - 05:18
06. Devil's Bride - 09:16
07. Whiskey Drinking Woman - 09:34





Password in archiv: nota304


Available to users only

Category: Blues | Blues-Rock | Views: 400 | Author: igoryok63 | Tags: Blues-Rock, The Bluesbones
0   Spam
1 grey   (12.04.2018 14:26)
Неплохо. Если можно, перезалейте COLD TRUTH 2003

0   Spam
2 WhiteLightning   (13.04.2018 04:50)
Can you check Disc 2 CUE timing is off

Broken Down Car starts on track 2

TOC of the extracted CD

     Track |   Start  |  Length  | Start sector | End sector 
    ---------------------------------------------------------
        1  |  0:00.00 |  0:04.00 |         0    |      299   
        2  |  0:04.00 |  3:56.08 |       300    |    18007   
        3  |  4:00.08 |  8:00.10 |     18008    |    54017   
        4  | 12:00.18 | 12:21.67 |     54018    |   109659   
        5  | 24:22.10 |  6:01.22 |    109660    |   136756   
        6  | 30:23.32 |  5:18.69 |    136757    |   160675   
        7  | 35:42.26 |  9:16.44 |    160676    |   202419   

Thanks

+1   Spam
3 ReeferMadness   (14.04.2018 04:32)
Thanks a lot for this second live

EDIT : I confirm WhiteLightning's comment : error on extract of cd2.
Missing track 07 : Whiskey Drinking Woman

Could you fix that, please ?

Thanks in advance

Видеть ссылки, комментировать и оценивать могут только зарегестрированные пользователи!
------------------------------------------------
To can See references, to comment and estimate only the registered users!


[ Registration | Enter ]
Calendar

Music Genres

Information

Entrance form
Login:
Password:

Search

Mini-Chat

Popular Album
Voivod - The Wake (2CD) (Japan Edition) (2018)
Striker - Play To Win (Japan Edition) (2018)
Nazareth - Tattooed On My Brain (Japan Edition) (2018)
Leah - The Quest (2018)
Fifth Angel - The Third Secret (2018)
Anderson/Wakeman - The Living Tree (2010)
Opeth - Garden Of The Titans (2CD) (2018)
Zed Mitchell - Game Is On (2011)
Nordic Union - Second Coming (Japan Edition) (2018)
Skid Row - Slave To The Grind (Japan Edition) (2009)
Meliah Rage - Dead To The World (2011) (2018)
Trick Or Treat - Re-Animated (Japan Edition) (2018)
Skull Fist - Way Of The Road (Japan Edition) (2018)
Holter - Vlad The Impaler (Japan Edition) (2018)
Jon Anderson - Change We Must (1994)
Evoken - Hypnagogia (2018)
Wolverine - Machina Viva (2016)
WolveSpirit - Blue Eyes (Limited Edition) (2017)
Skid Row - Subhuman Race (Japan Edition) (1995)
Hero's Fate - Human Tides: Dynamis Energeia (2018)

Our Poll
С какой Вы страны / With what you are the countries ?
Total of answers: 5644

Tag Cloud

Button
Союз образовательных сайтов Бесплатный софт - cкачать бесплатно
Online in total: 67
Guests: 8
Users: 59
Acoustic, AS, Jiu3a, ashratempel, kapo_pjm, pettia, Rafaelito, vadim_018, konstzhur, GustavHrbka, ap6812, optrom3, serytelegny, mnefedov, Lenon69, Liderk78, krad60, NightWolf65, regs11969, usert56, Serg-46, Musicecho, 223650011, Ifowe, maps, karels, kostrik, Evere1140, selketh, JOLUKA, beelyte, SlipknoT, Joe55, aa197777, petzibaer, marko13123, parfum, jktu, Culture, karmulay, rusted_tiger, delmortes, tolambus, Laserman, zander, Martin, rhox, brucebruce, alex0205, armen8, [Full list]


LosslessMusics.org © 2018