Thursday, 15.04.2021, 20:43
I welcome you Guest

Home Page | Forum | Administrator | Registration | Enter
Home page » 2021 » March » 22 » Roy Gaines - The War Is Over (2013)
16:19
Roy Gaines - The War Is Over (2013)


















Tracklist:

01. The War Is Over [05:54]
02. Badder Than Bad [05:52]
03. Going To New York [03:37]
04. Pushin-N-Pushin Out[04:48]
05. Too Many Miles Between Us[05:42]
06. You Gonna Get Somebody Killed[04:17]
07. Standin Up For Women's Rights[05:18]
08. Hold On - Herstory Pt. 1[03:42]
09. Hold On - Herstory Pt. 2[03:42]
10. Thang Shaker [05:23]
11. She Came On Time [04:57]
12. Sweet Pig Porker [04:15]
13. Double Dealin' Woman[05:02]
14. Go On Forget It [05:01]

Personnel:

Roy Gaines - Guitar, vocals
Hance Powell - Organ
Roy Alexander, Robert Welsh - Keyboards
Nate Phillips, Thomas Bowers - Bass
Lanse Lee, Robert Dean - Drums
etc.

Password: ZuFal
Exact Audio Copy V1.0 beta 3 from 29. August 2011

EAC extraction logfile from 19. April 2013, 20:19

Roy Gaines And His Tuxedo Orchestra / The War Is Over

Used drive : PLEXTOR DVDR PX-716A Adapter: 4 ID: 0

Read mode : Burst

Read offset correction : 30
Overread into Lead-In and Lead-Out : No
Fill up missing offset samples with silence : Yes
Delete leading and trailing silent blocks : No
Null samples used in CRC calculations : Yes
Used interface : Native Win32 interface for Win NT & 2000
Gap handling : Appended to previous track

Used output format : User Defined Encoder
Selected bitrate : 768 kBit/s
Quality : High
Add ID3 tag : No
Command line compressor : C:\Program Files (x86)\Exact Audio Copy - Copy\FLAC\FLAC.EXE
Additional command line options : -6 -V -T "ARTIST=%artist%" -T "TITLE=%title%" -T "ALBUM=%albumtitle%" -T "DATE=%year%" -T "TRACKNUMBER=%tracknr%" -T "GENRE=%genre%" -T "COMMENT=%comment%" -T "BAND=%albuminterpret%" -T "ALBUMARTIST=%albuminterpret%" -T "COMPOSER=%composer%" %haslyrics%--tag-from-file=LYRICS="%lyricsfile%"%haslyrics% -T "DISCNUMBER=%cdnumber%" -T "TOTALDISCS=%totalcds%" -T "TOTALTRACKS=%numtracks%" %hascover%--picture="%coverfile%"%hascover% %source% -o %dest%

TOC of the extracted CD

Track | Start | Length | Start sector | End sector
---------------------------------------------------------
1 | 0:00.00 | 5:54.38 | 0 | 26587
2 | 5:54.38 | 5:52.17 | 26588 | 53004
3 | 11:46.55 | 3:37.02 | 53005 | 69281
4 | 15:23.57 | 4:48.04 | 69282 | 90885
5 | 20:11.61 | 5:42.09 | 90886 | 116544
6 | 25:53.70 | 4:17.45 | 116545 | 135864
7 | 30:11.40 | 5:18.68 | 135865 | 159782
8 | 35:30.33 | 3:42.68 | 159783 | 176500
9 | 39:13.26 | 3:42.11 | 176501 | 193161
10 | 42:55.37 | 5:23.10 | 193162 | 217396
11 | 48:18.47 | 4:57.50 | 217397 | 239721
12 | 53:16.22 | 4:15.42 | 239722 | 258888
13 | 57:31.64 | 5:02.13 | 258889 | 281551
14 | 62:34.02 | 5:01.55 | 281552 | 304181

Track 1

Filename E:\Rips\Roy Gaines And His Tuxedo Orchestra - 2013 - The War Is Over\01 - The War Is Over.wav

Pre-gap length 0:00:02.00

Peak level 100.0 %
Extraction speed 18.5 X
Test CRC 632A3BCB
Copy CRC 632A3BCB
Track not present in AccurateRip database
Copy OK

Track 2

Filename E:\Rips\Roy Gaines And His Tuxedo Orchestra - 2013 - The War Is Over\02 - Badder Than Bad.wav

Peak level 100.0 %
Extraction speed 21.3 X
Test CRC 9AFC822E
Copy CRC 9AFC822E
Track not present in AccurateRip database
Copy OK

Track 3

Filename E:\Rips\Roy Gaines And His Tuxedo Orchestra - 2013 - The War Is Over\03 - Going To New York.wav

Peak level 100.0 %
Extraction speed 23.3 X
Test CRC C89E5205
Copy CRC C89E5205
Track not present in AccurateRip database
Copy OK

Track 4

Filename E:\Rips\Roy Gaines And His Tuxedo Orchestra - 2013 - The War Is Over\04 - Pushin-N-Pushin Out.wav

Peak level 100.0 %
Extraction speed 25.0 X
Test CRC 22AF1C8C
Copy CRC 22AF1C8C
Track not present in AccurateRip database
Copy OK

Track 5

Filename E:\Rips\Roy Gaines And His Tuxedo Orchestra - 2013 - The War Is Over\05 - Too Many Miles Between Us.wav

Peak level 95.0 %
Extraction speed 27.0 X
Test CRC BD62E85C
Copy CRC BD62E85C
Track not present in AccurateRip database
Copy OK

Track 6

Filename E:\Rips\Roy Gaines And His Tuxedo Orchestra - 2013 - The War Is Over\06 - You Gonna Get Somebody Killed.wav

Peak level 95.0 %
Extraction speed 28.6 X
Test CRC 360FD5EA
Copy CRC 360FD5EA
Track not present in AccurateRip database
Copy OK

Track 7

Filename E:\Rips\Roy Gaines And His Tuxedo Orchestra - 2013 - The War Is Over\07 - Standin Up For Women's Rights.wav

Peak level 100.0 %
Extraction speed 24.4 X
Test CRC 6EFE47C4
Copy CRC 6EFE47C4
Track not present in AccurateRip database
Copy OK

Track 8

Filename E:\Rips\Roy Gaines And His Tuxedo Orchestra - 2013 - The War Is Over\08 - Hold On - Herstory Pt. 1.wav

Peak level 100.0 %
Extraction speed 31.5 X
Test CRC 54465B49
Copy CRC 54465B49
Track not present in AccurateRip database
Copy OK

Track 9

Filename E:\Rips\Roy Gaines And His Tuxedo Orchestra - 2013 - The War Is Over\09 - Hold On - Herstory Pt. 2.wav

Peak level 100.0 %
Extraction speed 32.6 X
Test CRC 04D0873E
Copy CRC 04D0873E
Track not present in AccurateRip database
Copy OK

Track 10

Filename E:\Rips\Roy Gaines And His Tuxedo Orchestra - 2013 - The War Is Over\10 - Thang Shaker.wav

Peak level 100.0 %
Extraction speed 34.0 X
Test CRC 8098A225
Copy CRC 8098A225
Track not present in AccurateRip database
Copy OK

Track 11

Filename E:\Rips\Roy Gaines And His Tuxedo Orchestra - 2013 - The War Is Over\11 - She Came On Time.wav

Peak level 100.0 %
Extraction speed 27.2 X
Test CRC 09EA910E
Copy CRC 09EA910E
Track not present in AccurateRip database
Copy OK

Track 12

Filename E:\Rips\Roy Gaines And His Tuxedo Orchestra - 2013 - The War Is Over\12 - Sweet Pig Porker.wav

Peak level 99.9 %
Extraction speed 36.5 X
Test CRC 24D73795
Copy CRC 24D73795
Track not present in AccurateRip database
Copy OK

Track 13

Filename E:\Rips\Roy Gaines And His Tuxedo Orchestra - 2013 - The War Is Over\13 - Double Dealin' Woman.wav

Pre-gap length 0:00:02.00

Peak level 100.0 %
Extraction speed 37.8 X
Test CRC FEBCFB36
Copy CRC FEBCFB36
Track not present in AccurateRip database
Copy OK

Track 14

Filename E:\Rips\Roy Gaines And His Tuxedo Orchestra - 2013 - The War Is Over\14 - Go On Forget It.wav

Pre-gap length 0:00:02.00

Peak level 100.0 %
Extraction speed 39.0 X
Test CRC 9AA697D5
Copy CRC 9AA697D5
Track not present in AccurateRip database
Copy OK

None of the tracks are present in the AccurateRip database

No errors occurred

End of status report


samples

Thanks Herbicidal Maniac

Category: Blues | Blues-Rock | Views: 108 | Author: ZuFal | Tags: Modern Electric Blues, Roy Gaines
Видеть ссылки, комментировать и оценивать могут только зарегестрированные пользователи!
------------------------------------------------
To can See references, to comment and estimate only the registered users!


[ Registration | Enter ]
Calendar

Music Genres

Entrance form
Login:
Password:

Search

Mini-Chat

Popular Album
Place Vendome - Disсоgrарhу (Japan Edition) (2005-2017)
Dire Straits - Тhе Studiо Аlbums 1978-1991 (2020)
Mariza - Fado Tradicional (2010)
Mariza - Fado Em Mim (2001)
Zonata - Тunеs Оf Stееl (Jараn Еditiоn) (1999)
Mariza - Terra (2008)
Ozzy Osbourne - Оrdinаrу Маn (Jараn Еditiоn) (2020)
Mariza - Transparente (2005)
My Dying Bride - Turn Loose The Swans (1993)
Heart Healer - Тhе Меtаl Ореrа Ву Маgnus Каrlssоn (Jараn Еditiоn) (2021)
Rob Zombie - Тhе Lunаr Injесtiоn Кооl Аid Есliрsе Соnsрirасу (2021)
Siegfried - Eisenwinter (Limited Edition) (2003)
Omega Centauri - Universum Infinitum (2012)
Mephorash - Shеm На Мерhоrаsh (2019)
DevilDriver - Рrау Fоr Villаins (Limitеd Еditiоn) (2009)
Signum Regis - Dесеnnium Рrimum (Jараn Еditiоn) (2017)
Pythia - Shаdоws Оf А Вrоkеn Раst (2014)
Metallica - ReLoad [Reissue 2013] (1997)
Metallica - Load [Reissue 2013] (1996)
Lord - Digital Lies (2013)

Last Discographies
Era - Discography - Lossless
Trivium - Discography - Lossless
Mariza - Discography - Lossless
Bon Jovi - Discography - Lossless
Greg Howe - Discography - Lossless
Adema - Discography - Lossless
Infected Mushroom - Discography - Lossless
Tanita Tikaram - Discography - Lossless
Ногу свело! - Дискография - Lossless
Fozzy - Discography - Lossless
Angel Olsen - Discography - Lossless
Dream Theater - Discography - Lossless

Button

Online in total: 111
Guests: 7
Users: 104
snake3891, bruiser15, sergsazan, PRETORIANO, penseur, italy, Tyranoid, Kaz, nightrain, IGOGO-1, alexeyyury, Grupo22, pat_3, vict67, huesogarcia, serzantas, Edward, LucT, celticwoman, fortuna1961, bonneb67, lizzyb, Mr_Black, jaboza, GWor1964, mischaak, bugmenit666, DJ_RETRO, SAAREMA, kamenarstvomarko, anasio, slavko121, AS, clayton1961, krad60, Fluz, Klynika, Stasparfenov, gr0g, MGMGRG, synjpbac, namahs31, kgwatson54, scaricando, grey, Dorset, petzibaer, karels, surich, Culture, [Full list]


DMCA Policy | Disclaimer | Administrator
LosslessMusics.org © 2021